Download Before I Wake (2016) 720p BluRay [Hindi Dubbed + English] x264 AAC ESub By Full4Movies mkv torrent - GloDLS
Torrent Details For "Before I Wake (2016) 720p BluRay [Hindi Dubbed + English] x264 AAC ESub By Full4Movie..."

Before I Wake (2016) 720p BluRay [Hindi Dubbed + English] x264 AAC ESub By Full4Movie...

To download this torrent, you need a BitTorrent client: Vuze or BTGuard
Download this torrent
Download using Magnet Link

Health:
Seeds: 55
Leechers: 115
Completed: 43 
Last Checked: 13-01-2021 16:41:19

Uploader Reputation points : 4205
External: Torrent






Write a Review for the Uploader:   5   Say Thanks with one good review:
Share on Facebook


Details
Name:Before I Wake (2016) 720p BluRay [Hindi Dubbed + English] x264 AAC ESub By Full4Movie...
Description:


Visit Us = https://full4movies.xyz/



General
Complete name                  : Before I Wake (2016) 720p BluRay [Hindi Dubbed + English] x264 AAC ESub By Full4Movies.mkv
Format                         : Matroska
Format version                 : Version 4
File size                      : 1.06 GiB
Duration                       : 1 h 36 min
Overall bit rate               : 1 567 kb/s
Encoded date                   : UTC 2021-01-13 06:25:11
Writing application            : mkvmerge v8.0.0 ('Til The Day That I Die') 32bit
Writing library                : libebml v1.3.1 + libmatroska v1.4.2

Video
ID                             : 1
Format                         : AVC
Format/Info                    : Advanced Video Codec
Format profile                 : [email protected]
Format settings                : CABAC / 4 Ref Frames
Format settings, CABAC         : Yes
Format settings, Reference fra : 4 frames
Codec ID                       : V_MPEG4/ISO/AVC
Duration                       : 1 h 36 min
Bit rate                       : 1 312 kb/s
Width                          : 1 280 pixels
Height                         : 534 pixels
Display aspect ratio           : 2.40:1
Original display aspect ratio  : 2.40:1
Frame rate mode                : Constant
Frame rate                     : 23.976 (24000/1001) FPS
Color space                    : YUV
Chroma subsampling             : 4:2:0
Bit depth                      : 8 bits
Scan type                      : Progressive
Bits/(Pixel*Frame)             : 0.080
Stream size                    : 905 MiB (84%)
Writing library                : x264 core 142 r2479 dd79a61
Default                        : Yes
Forced                         : No
Color range                    : Limited
Color primaries                : BT.709
Transfer characteristics       : BT.709
Matrix coefficients            : BT.709

Audio #1
ID                             : 2
Format                         : AAC LC SBR
Format/Info                    : Advanced Audio Codec Low Complexity with Spectral Band Replication
Commercial name                : HE-AAC
Format settings                : NBC
Codec ID                       : A_AAC-5
Duration                       : 1 h 36 min
Bit rate                       : 160 kb/s
Channel(s)                     : 6 channels
Channel layout                 : C L R Ls Rs LFE
Sampling rate                  : 48.0 kHz
Frame rate                     : 23.438 FPS (2048 SPF)
Compression mode               : Lossy
Delay relative to video        : -105 ms
Stream size                    : 111 MiB (10%)
Language                       : Hindi
Default                        : Yes
Forced                         : Yes

Audio #2
ID                             : 3
Format                         : AAC LC SBR
Format/Info                    : Advanced Audio Codec Low Complexity with Spectral Band Replication
Commercial name                : HE-AAC
Format settings                : NBC
Codec ID                       : A_AAC-5
Duration                       : 1 h 36 min
Bit rate                       : 96.0 kb/s
Channel(s)                     : 2 channels
Channel layout                 : L R
Sampling rate                  : 48.0 kHz
Frame rate                     : 23.438 FPS (2048 SPF)
Compression mode               : Lossy
Delay relative to video        : -105 ms
Stream size                    : 66.4 MiB (6%)
Language                       : English
Default                        : No
Forced                         : No

Text #1
ID                             : 4
Format                         : ASS
Codec ID                       : S_TEXT/ASS
Codec ID/Info                  : Advanced Sub Station Alpha
Duration                       : 1 h 31 min
Bit rate                       : 60 b/s
Count of elements              : 762
Compression mode               : Lossless
Stream size                    : 40.7 KiB (0%)
Title                          : ESub
Language                       : English
Default                        : No
Forced                         : No

Screen Shoots
YouTube Video:
Category:Movies
Language:Dubs/Dual Audio
Total Size:1.06 GB
Info Hash:7E315453B89E2FCDB4BDE340957A85DDCD4DFB55
Added By:india4movie Verified Uploader
Date Added:2021-01-13 16:11:42
Torrent Status:Torrent Verified


Ratings:Not Yet Rated (Log in to rate it)


Tracker:
udp://tracker.opentrackr.org:1337/announce

This Torrent also has backup trackers
URLSeedersLeechersCompleted
udp://tracker.opentrackr.org:1337/announce5138
udp://tracker.cyberia.is:6969/announce474
udp://9.rarbg.me:2980/announce2105
udp://open.stealth.si:80/announce572
udp://exodus.desync.com:6969/announce473
udp://tracker.moeking.me:6969/announce371
udp://explodie.org:6969/announce180
udp://tracker.openbittorrent.com:80/announce5138
udp://inferno.demonoid.is:3391/announce671
udp://tracker.torrent.eu.org:451/announce371
udp://ipv4.tracker.harry.lu:80/announce260
udp://tracker.uw0.xyz:6969/announce584
udp://tracker.coppersurfer.tk:6969/announce000
udp://exodus.desync.com:6969/announce473
udp://tracker.tiny-vps.com:6969/announce683


File List: 





Comments
No comments still posted