Download Before I Wake (2016) 480p BluRay [Hindi Dubbed + English] x264 AAC ESub By Full4Movies mkv torrent - GloDLS
Torrent Details For "Before I Wake (2016) 480p BluRay [Hindi Dubbed + English] x264 AAC ESub By Full4Movie..."

Before I Wake (2016) 480p BluRay [Hindi Dubbed + English] x264 AAC ESub By Full4Movie...

To download this torrent, you need a BitTorrent client: Vuze or BTGuard
Download this torrent
Download using Magnet Link

Health:
Seeds: 9
Leechers: 4
Completed:
Last Checked: 13-01-2021 16:40:12

Uploader Reputation points : 4263
External: Torrent






Write a Review for the Uploader:   5   Say Thanks with one good review:
Share on Facebook


Details
Name:Before I Wake (2016) 480p BluRay [Hindi Dubbed + English] x264 AAC ESub By Full4Movie...
Description:


Visit Us = https://full4movies.xyz/



General
Complete name                  : Before I Wake (2016) 480p BluRay [Hindi Dubbed + English] x264 AAC ESub By Full4Movies.mkv
Format                         : Matroska
Format version                 : Version 4
File size                      : 339 MiB
Duration                       : 1 h 36 min
Overall bit rate               : 490 kb/s
Encoded date                   : UTC 2021-01-13 06:24:03
Writing application            : mkvmerge v8.0.0 ('Til The Day That I Die') 32bit
Writing library                : libebml v1.3.1 + libmatroska v1.4.2

Video
ID                             : 1
Format                         : AVC
Format/Info                    : Advanced Video Codec
Format profile                 : [email protected]
Format settings                : CABAC / 4 Ref Frames
Format settings, CABAC         : Yes
Format settings, Reference fra : 4 frames
Codec ID                       : V_MPEG4/ISO/AVC
Duration                       : 1 h 36 min
Bit rate                       : 400 kb/s
Width                          : 720 pixels
Height                         : 300 pixels
Display aspect ratio           : 2.40:1
Frame rate mode                : Constant
Frame rate                     : 23.976 (24000/1001) FPS
Color space                    : YUV
Chroma subsampling             : 4:2:0
Bit depth                      : 8 bits
Scan type                      : Progressive
Bits/(Pixel*Frame)             : 0.077
Stream size                    : 276 MiB (82%)
Writing library                : x264 core 142 r2479 dd79a61
Default                        : Yes
Forced                         : No
Color range                    : Limited
Color primaries                : BT.709
Transfer characteristics       : BT.709
Matrix coefficients            : BT.709

Audio #1
ID                             : 2
Format                         : AAC LC SBR
Format/Info                    : Advanced Audio Codec Low Complexity with Spectral Band Replication
Commercial name                : HE-AAC
Format settings                : NBC
Codec ID                       : A_AAC-5
Duration                       : 1 h 36 min
Bit rate                       : 56.0 kb/s
Channel(s)                     : 2 channels
Channel layout                 : L R
Sampling rate                  : 48.0 kHz
Frame rate                     : 23.438 FPS (2048 SPF)
Compression mode               : Lossy
Delay relative to video        : -105 ms
Stream size                    : 38.7 MiB (11%)
Language                       : Hindi
Default                        : Yes
Forced                         : Yes

Audio #2
ID                             : 3
Format                         : AAC LC SBR
Format/Info                    : Advanced Audio Codec Low Complexity with Spectral Band Replication
Commercial name                : HE-AAC
Format settings                : NBC
Codec ID                       : A_AAC-5
Duration                       : 1 h 36 min
Bit rate                       : 32.0 kb/s
Channel(s)                     : 2 channels
Channel layout                 : L R
Sampling rate                  : 48.0 kHz
Frame rate                     : 23.438 FPS (2048 SPF)
Compression mode               : Lossy
Delay relative to video        : -105 ms
Stream size                    : 22.1 MiB (7%)
Language                       : English
Default                        : No
Forced                         : No

Text #1
ID                             : 4
Format                         : ASS
Codec ID                       : S_TEXT/ASS
Codec ID/Info                  : Advanced Sub Station Alpha
Duration                       : 1 h 31 min
Bit rate                       : 60 b/s
Count of elements              : 762
Compression mode               : Lossless
Stream size                    : 40.7 KiB (0%)
Title                          : ESub
Language                       : English
Default                        : No
Forced                         : No

Screen Shoots
YouTube Video:
Category:Movies
Language:Dubs/Dual Audio
Total Size:338.75 MB
Info Hash:56AD7AB09AD93BD14A3ACEB62E3153FA9BA7DE03
Added By:india4movie Verified Uploader
Date Added:2021-01-13 16:09:17
Torrent Status:Torrent Verified


Ratings:Not Yet Rated (Log in to rate it)


Tracker:
udp://tracker.opentrackr.org:1337/announce

This Torrent also has backup trackers
URLSeedersLeechersCompleted
udp://tracker.opentrackr.org:1337/announce000
udp://tracker.cyberia.is:6969/announce131
udp://9.rarbg.me:2980/announce000
udp://open.stealth.si:80/announce100
udp://exodus.desync.com:6969/announce000
udp://tracker.moeking.me:6969/announce100
udp://explodie.org:6969/announce000
udp://tracker.openbittorrent.com:80/announce213
udp://inferno.demonoid.is:3391/announce100
udp://tracker.torrent.eu.org:451/announce100
udp://ipv4.tracker.harry.lu:80/announce000
udp://tracker.uw0.xyz:6969/announce100
udp://tracker.coppersurfer.tk:6969/announce000
udp://exodus.desync.com:6969/announce000
udp://tracker.tiny-vps.com:6969/announce100


File List: 





Comments
No comments still posted