Download Before I Wake (2016) 1080p BluRay [Hindi Dubbed + English] x264 AAC ESub y Full4Movies mkv torrent - GloDLS
Torrent Details For "Before I Wake (2016) 1080p BluRay [Hindi Dubbed + English] x264 AAC ESub y Full4Movie..."

Before I Wake (2016) 1080p BluRay [Hindi Dubbed + English] x264 AAC ESub y Full4Movie...

To download this torrent, you need a BitTorrent client: Vuze or BTGuard
Download this torrent
Download using Magnet Link

Health:
Seeds: 37
Leechers: 30
Completed: 52 
Last Checked: 13-01-2021 16:39:54

Uploader Reputation points : 4263
External: Torrent






Write a Review for the Uploader:   5   Say Thanks with one good review:
Share on Facebook


Details
Name:Before I Wake (2016) 1080p BluRay [Hindi Dubbed + English] x264 AAC ESub y Full4Movie...
Description:


Visit Us = https://full4movies.xyz/



General
Complete name                  : Before I Wake (2016) 1080p BluRay [Hindi Dubbed + English] x264 AAC ESub y Full4Movies.mkv
Format                         : Matroska
Format version                 : Version 4
File size                      : 2.10 GiB
Duration                       : 1 h 36 min
Overall bit rate               : 3 109 kb/s
Encoded date                   : UTC 2021-01-13 06:26:29
Writing application            : mkvmerge v8.0.0 ('Til The Day That I Die') 32bit
Writing library                : libebml v1.3.1 + libmatroska v1.4.2

Video
ID                             : 1
Format                         : AVC
Format/Info                    : Advanced Video Codec
Format profile                 : [email protected]
Format settings                : CABAC / 5 Ref Frames
Format settings, CABAC         : Yes
Format settings, Reference fra : 5 frames
Codec ID                       : V_MPEG4/ISO/AVC
Duration                       : 1 h 36 min
Bit rate                       : 2 850 kb/s
Width                          : 1 920 pixels
Height                         : 800 pixels
Display aspect ratio           : 2.40:1
Frame rate mode                : Constant
Frame rate                     : 23.976 (24000/1001) FPS
Color space                    : YUV
Chroma subsampling             : 4:2:0
Bit depth                      : 8 bits
Scan type                      : Progressive
Bits/(Pixel*Frame)             : 0.077
Stream size                    : 1.93 GiB (92%)
Writing library                : x264 core 148 r2638 7599210
Language                       : English
Default                        : Yes
Forced                         : Yes

Audio #1
ID                             : 2
Format                         : AAC LC SBR
Format/Info                    : Advanced Audio Codec Low Complexity with Spectral Band Replication
Commercial name                : HE-AAC
Format settings                : NBC
Codec ID                       : A_AAC-5
Duration                       : 1 h 36 min
Bit rate                       : 160 kb/s
Channel(s)                     : 6 channels
Channel layout                 : C L R Ls Rs LFE
Sampling rate                  : 48.0 kHz
Frame rate                     : 23.438 FPS (2048 SPF)
Compression mode               : Lossy
Stream size                    : 111 MiB (5%)
Language                       : Hindi
Default                        : Yes
Forced                         : No

Audio #2
ID                             : 3
Format                         : AAC LC SBR
Format/Info                    : Advanced Audio Codec Low Complexity with Spectral Band Replication
Commercial name                : HE-AAC
Format settings                : NBC
Codec ID                       : A_AAC-5
Duration                       : 1 h 36 min
Bit rate                       : 96.0 kb/s
Channel(s)                     : 2 channels
Channel layout                 : L R
Sampling rate                  : 48.0 kHz
Frame rate                     : 23.438 FPS (2048 SPF)
Compression mode               : Lossy
Stream size                    : 66.4 MiB (3%)
Language                       : English
Default                        : No
Forced                         : No

Text #1
ID                             : 4
Format                         : ASS
Codec ID                       : S_TEXT/ASS
Codec ID/Info                  : Advanced Sub Station Alpha
Duration                       : 1 h 31 min
Bit rate                       : 60 b/s
Count of elements              : 762
Compression mode               : Lossless
Stream size                    : 40.7 KiB (0%)
Title                          : ESub
Language                       : English
Default                        : No
Forced                         : No

Screen Shoots
YouTube Video:
Category:Movies
Language:Dubs/Dual Audio
Total Size:2.10 GB
Info Hash:5F87C2A49AA528ED23F115BA0EDD4B3B30F2C074
Added By:india4movie Verified Uploader
Date Added:2021-01-13 16:13:55
Torrent Status:Torrent Verified


Ratings:Not Yet Rated (Log in to rate it)


Tracker:
udp://tracker.opentrackr.org:1337/announce

This Torrent also has backup trackers
URLSeedersLeechersCompleted
udp://tracker.opentrackr.org:1337/announce000
udp://tracker.cyberia.is:6969/announce537
udp://9.rarbg.me:2980/announce000
udp://open.stealth.si:80/announce445
udp://exodus.desync.com:6969/announce327
udp://tracker.moeking.me:6969/announce313
udp://explodie.org:6969/announce100
udp://tracker.openbittorrent.com:80/announce578
udp://inferno.demonoid.is:3391/announce445
udp://tracker.torrent.eu.org:451/announce000
udp://ipv4.tracker.harry.lu:80/announce110
udp://tracker.uw0.xyz:6969/announce434
udp://tracker.coppersurfer.tk:6969/announce000
udp://exodus.desync.com:6969/announce327
udp://tracker.tiny-vps.com:6969/announce436


File List: 





Comments
No comments still posted