Download Angels Fallen (2020) 480p [Hindi Dubbed + Eng] HDRip x264 AAC ESub By Full4Movies mkv torrent - GloDLS
Torrent Details For "Angels Fallen (2020) 480p [Hindi Dubbed + Eng] HDRip x264 AAC ESub By Full4Movies mkv"

Angels Fallen (2020) 480p [Hindi Dubbed + Eng] HDRip x264 AAC ESub By Full4Movies mkv

To download this torrent, you need a BitTorrent client: Vuze or BTGuard
Download this torrent
Download using Magnet Link

Health:
Seeds: 189
Leechers: 557
Completed: 98 
Last Checked: 18-11-2020 12:47:06

Uploader Reputation points : 3225
External: Torrent






Write a Review for the Uploader:   5   Say Thanks with one good review:
Share on Facebook


Details
Name:Angels Fallen (2020) 480p [Hindi Dubbed + Eng] HDRip x264 AAC ESub By Full4Movies mkv
Description:


Visit Us = https://full4movies.xyz/

General
Complete name                  : Angels Fallen (2020) 480p [Hindi Dubbed + Eng] HDRip x264 AAC ESub By Full4Movies.mkv
Format                         : Matroska
Format version                 : Version 4
File size                      : 600 MiB
Duration                       : 1 h 26 min
Overall bit rate               : 969 kb/s
Encoded date                   : UTC 2020-11-18 06:44:20
Writing application            : mkvmerge v8.0.0 ('Til The Day That I Die') 32bit
Writing library                : libebml v1.3.1 + libmatroska v1.4.2

Video
ID                             : 1
Format                         : AVC
Format/Info                    : Advanced Video Codec
Format profile                 : [email protected]
Format settings                : CABAC / 4 Ref Frames
Format settings, CABAC         : Yes
Format settings, Reference fra : 4 frames
Codec ID                       : V_MPEG4/ISO/AVC
Duration                       : 1 h 26 min
Bit rate                       : 595 kb/s
Width                          : 640 pixels
Height                         : 356 pixels
Display aspect ratio           : 16:9
Frame rate mode                : Constant
Frame rate                     : 23.976 (24000/1001) FPS
Color space                    : YUV
Chroma subsampling             : 4:2:0
Bit depth                      : 8 bits
Scan type                      : Progressive
Bits/(Pixel*Frame)             : 0.109
Stream size                    : 365 MiB (61%)
Writing library                : x264 core 157 r2935 545de2f
Default                        : Yes
Forced                         : No
Color range                    : Limited
Color primaries                : BT.709
Transfer characteristics       : BT.709
Matrix coefficients            : BT.709

Audio #1
ID                             : 2
Format                         : AAC LC
Format/Info                    : Advanced Audio Codec Low Complexity
Codec ID                       : A_AAC-2
Duration                       : 1 h 26 min
Bit rate                       : 192 kb/s
Channel(s)                     : 2 channels
Channel layout                 : L R
Sampling rate                  : 44.1 kHz
Frame rate                     : 43.066 FPS (1024 SPF)
Compression mode               : Lossy
Stream size                    : 121 MiB (20%)
Language                       : Hindi
Default                        : Yes
Forced                         : Yes

Audio #2
ID                             : 3
Format                         : AAC LC
Format/Info                    : Advanced Audio Codec Low Complexity
Codec ID                       : A_AAC-2
Duration                       : 1 h 26 min
Bit rate                       : 181 kb/s
Channel(s)                     : 2 channels
Channel layout                 : L R
Sampling rate                  : 48.0 kHz
Frame rate                     : 46.875 FPS (1024 SPF)
Compression mode               : Lossy
Stream size                    : 112 MiB (19%)
Language                       : English
Default                        : No
Forced                         : No

Text
ID                             : 4
Format                         : UTF-8
Codec ID                       : S_TEXT/UTF8
Codec ID/Info                  : UTF-8 Plain Text
Duration                       : 1 h 25 min
Bit rate                       : 45 b/s
Count of elements              : 1296
Stream size                    : 28.3 KiB (0%)
Language                       : English
Default                        : Yes
Forced                         : No

Screen Shoots
YouTube Video:
Category:Movies
Language:Dubs/Dual Audio
Total Size:600.43 MB
Info Hash:05DEF1D7ED3DAE5F6842885FECE4A8F0B956AEEB
Added By:india4movie Uploader
Date Added:2020-11-18 15:36:36
Torrent Status:Unverified Torrent


Ratings:Not Yet Rated (Log in to rate it)


Tracker:
http://tracker.ipv6tracker.ru:80/announce

This Torrent also has backup trackers
URLSeedersLeechersCompleted
http://tracker.ipv6tracker.ru:80/announce000
udp://tracker.kamigami.org:2710/announce284
udp://tracker.beeimg.com:6969/announce000
udp://opentracker.i2p.rocks:6969/announce250
udp://tracker.zerobytes.xyz:1337/announce272
https://tracker.nitrix.me:443/announce233
udp://aaa.army:8866/announce240
udp://tracker2.dler.org:80/announce100
https://tracker.imgoingto.icu:443/announce210
udp://tracker.shkinev.me:6969/announce250
udp://blokas.io:6969/announce250
udp://api.bitumconference.ru:6969/announce240
udp://discord.heihachi.pw:6969/announce240
udp://fe.dealclub.de:6969/announce240
udp://vibe.community:6969/announce240
udp://engplus.ru:6969/announce240
udp://kanal-4.de:6969/announce240
udp://mail.realliferpg.de:6969/announce240
udp://movies.zsw.ca:6969/announce240
udp://torrent.tdjs.tech:6969/announce240
udp://adminion.n-blade.ru:6969/announce240
udp://tracker.v6speed.org:6969/announce250
udp://sd-161673.dedibox.fr:6969/announce240
udp://cdn-1.gamecoast.org:6969/announce481
udp://cdn-2.gamecoast.org:6969/announce481
udp://daveking.com:6969/announce240
http://rt.tace.ru:80/announce071
udp://inferno.demonoid.is:3391/announce240
udp://forever-tracker.zooki.xyz:6969/announce250
udp://free-tracker.zooki.xyz:6969/announce000
udp://tracker-v6.zooki.xyz:6969/announce000
udp://z.mercax.com:53/announce000
udp://tracker.altrosky.nl:6969/announce250
http://5rt.tace.ru:60889/announce0221
https://tracker.cyber-hub.net:443/announce000
https://tracker.lilithraws.cf:443/announce000
udp://torrentclub.online:54123/announce250
udp://6rt.tace.ru:80/announce000
https://tracker.foreverpirates.co:443/announce230
udp://bt2.3kb.xyz:6969/announce010
http://btracker.top:11451/announce000
udp://tracker.tiny-vps.com:6969/announce273
udp://open.stealth.si:80/announce263
udp://tracker.dler.org:6969/announce000
udp://tracker.torrent.eu.org:451/announce264
udp://tracker.birkenwald.de:6969/announce000
http://vps02.net.orel.ru:80/announce252
http://tracker.files.fm:6969/announce250
udp://cutiegirl.ru:6969/announce240
udp://wassermann.online:6969/announce250
udp://chanchan.uchuu.co.uk:6969/announce240
udp://tracker.dyne.org:6969/announce000
udp://storage.groupees.com:6969/announce240
udp://benouworldtrip.fr:6969/announce240
udp://47.ip-51-68-199.eu:6969/announce240
udp://t1.leech.ie:1337/announce020
udp://tracker.publictracker.xyz:6969/announce250
udp://us-tracker.publictracker.xyz:6969/announce250
udp://tracker.0x.tf:6969/announce250
udp://www.torrent.eu.org:451/announce264
http://tracker.sakurato.xyz:23333/announce000
udp://tracker1.bt.moack.co.kr:80/announce240
udp://ipv4.tracker.harry.lu:80/announce030
udp://zephir.monocul.us:6969/announce262
udp://tracker.uw0.xyz:6969/announce000
udp://tracker.cyberia.is:6969/announce257
udp://retracker.hotplug.ru:2710/announce000
http://h4.trakx.nibba.trade:80/announce270
udp://bt1.archive.org:6969/announce262
udp://ipv6.tracker.zerobytes.xyz:16661/announce000
http://tracker.anonwebz.xyz:8080/announce000
udp://ln.mtahost.co:6969/announce250
udp://mts.tvbit.co:6969/announce240
udp://bms-hosxp.com:6969/announce240
udp://edu.uifr.ru:6969/announce241
udp://tracker.ds.is:6969/announce240
http://tracker.bt4g.com:2095/announce000
udp://tracker.zum.bi:6969/announce240
https://tracker.tamersunion.org:443/announce230
udp://rutorrent.frontline-mod.com:6969/announce240
udp://aruacfilmes.com.br:6969/announce240
udp://tracker.skynetcloud.site:6969/announce000
udp://3rt.tace.ru:60889/announce0201
udp://retracker.akado-ural.ru:80/announce000
udp://opentor.org:2710/announce262
udp://dpiui.reedlan.com:6969/announce240
udp://nagios.tks.sumy.ua:80/announce240
udp://61626c.net:6969/announce240
udp://t2.leech.ie:1337/announce020
https://trakx.herokuapp.com:443/announce270
udp://retracker.lanta-net.ru:2710/announce264
udp://valakas.rollo.dnsabr.com:2710/announce262
udp://tracker.e-utp.net:6969/announce000
udp://line-net.ru:6969/announce240
http://tracker.noobsubs.net:80/announce000
udp://bt2.archive.org:6969/announce240
udp://tracker.army:6969/announce010
http://t.nyaatracker.com:80/announce000
udp://t3.leech.ie:1337/announce020
udp://tracker0.ufibox.com:6969/announce241
udp://adm.category5.tv:6969/announce241
https://1337.abcvg.info:443/announce000
udp://code2chicken.nl:6969/announce241
udp://exodus.desync.com:6969/announce152
udp://publictracker.xyz:6969/announce251
udp://asger.xyz:6969/announce000
https://w.wwwww.wtf:443/announce220
http://tracker2.itzmx.com:6961/announce271
http://tracker3.itzmx.com:6961/announce4284
http://t.overflow.biz:6969/announce261
udp://ultra.zt.ua:6969/announce000
udp://explodie.org:6969/announce020
udp://www.midea123.z-media.com.cn:6969/announce251
udp://bioquantum.co.za:6969/announce251
udp://tr2.ysagin.top:2710/announce241
udp://tracker.fortu.io:6969/announce241
udp://teamspeak.value-wolf.org:6969/announce241
udp://tracker.moeking.me:6969/announce261
udp://bubu.mapfactor.com:6969/announce151
udp://tracker.opentrackr.org:1337/announce41010
udp://tracker.zemoj.com:6969/announce241
udp://u.wwwww.wtf:1/announce220
udp://tracker.blacksparrowmedia.net:6969/announce000
udp://tracker.coppersurfer.tk:6969/announce000
udp://9.rarbg.to:2710/announce000
udp://9.rarbg.me:2710/announce2910
udp://tracker.internetwarriors.net:1337/announce000
udp://tracker.leechers-paradise.org:6969/announce000
udp://tracker3.itzmx.com:6961/announce4284
http://tracker1.itzmx.com:8080/announce4284
http://open.acgnxtracker.com:80/announce230


File List: 





Comments

[Report] Posted: 18-11-2020 at 09:55:53
nanchy warned

avatar

profile message
tyvm =D