Download American Thief (2020) 720p English HDRip x264 AAC By Full4Movies mkv torrent - GloDLS
Torrent Details For "American Thief (2020) 720p English HDRip x264 AAC By Full4Movies mkv"

American Thief (2020) 720p English HDRip x264 AAC By Full4Movies mkv

To download this torrent, you need a BitTorrent client: Vuze or BTGuard
Download this torrent
Download using Magnet Link

Health:
Seeds: 29
Leechers: 83
Completed: 41 
Last Checked: 13-01-2021 09:39:15

Uploader Reputation points : 4373
External: Torrent






Write a Review for the Uploader:   5   Say Thanks with one good review:
Share on Facebook


Details
Name:American Thief (2020) 720p English HDRip x264 AAC By Full4Movies mkv
Description:


Visit Us = https://full4movies.xyz/



General
Complete name                  : American Thief (2020) 720p English HDRip x264 AAC By Full4Movies.mkv
Format                         : Matroska
Format version                 : Version 4
File size                      : 796 MiB
Duration                       : 1 h 18 min
Overall bit rate               : 1 419 kb/s
Encoded date                   : UTC 2021-01-13 04:44:41
Writing application            : mkvmerge v8.0.0 ('Til The Day That I Die') 32bit
Writing library                : libebml v1.3.1 + libmatroska v1.4.2

Video
ID                             : 1
Format                         : AVC
Format/Info                    : Advanced Video Codec
Format profile                 : [email protected]
Format settings                : CABAC / 4 Ref Frames
Format settings, CABAC         : Yes
Format settings, Reference fra : 4 frames
Codec ID                       : V_MPEG4/ISO/AVC
Duration                       : 1 h 18 min
Bit rate                       : 1 320 kb/s
Width                          : 1 280 pixels
Height                         : 528 pixels
Display aspect ratio           : 2.40:1
Frame rate mode                : Variable
Frame rate                     : 23.976 FPS
Color space                    : YUV
Chroma subsampling             : 4:2:0
Bit depth                      : 8 bits
Scan type                      : Progressive
Bits/(Pixel*Frame)             : 0.081
Stream size                    : 740 MiB (93%)
Writing library                : x264 core 157
Language                       : English
Default                        : Yes
Forced                         : No

Audio
ID                             : 2
Format                         : AAC LC
Format/Info                    : Advanced Audio Codec Low Complexity
Codec ID                       : A_AAC-2
Duration                       : 1 h 18 min
Bit rate                       : 96.0 kb/s
Channel(s)                     : 2 channels
Channel layout                 : L R
Sampling rate                  : 48.0 kHz
Frame rate                     : 46.875 FPS (1024 SPF)
Compression mode               : Lossy
Stream size                    : 53.9 MiB (7%)
Language                       : English
Default                        : Yes
Forced                         : No

Screen Shoots
YouTube Video:
Category:Movies
Language:English  English
Total Size:795.59 MB
Info Hash:0454F9A7C036C0F7E10F630EE06463A1C41314AD
Added By:india4movie Verified Uploader
Date Added:2021-01-13 14:06:12
Torrent Status:Torrent Verified


Ratings:Not Yet Rated (Log in to rate it)


Tracker:
udp://tracker.opentrackr.org:1337/announce

This Torrent also has backup trackers
URLSeedersLeechersCompleted
udp://tracker.opentrackr.org:1337/announce4136
udp://tracker.cyberia.is:6969/announce475
udp://9.rarbg.me:2980/announce000
udp://open.stealth.si:80/announce353
udp://exodus.desync.com:6969/announce264
udp://tracker.moeking.me:6969/announce031
udp://explodie.org:6969/announce040
udp://tracker.openbittorrent.com:80/announce4136
udp://inferno.demonoid.is:3391/announce262
udp://tracker.torrent.eu.org:451/announce363
udp://ipv4.tracker.harry.lu:80/announce030
udp://tracker.uw0.xyz:6969/announce262
udp://tracker.coppersurfer.tk:6969/announce000
udp://exodus.desync.com:6969/announce264
udp://tracker.tiny-vps.com:6969/announce355


File List: 





Comments
No comments still posted