Download Aftermath xxx 1080p mp4 torrent - GloDLS
Login
Username:
Password:
Remember Me:
[Signup]
[Recover Account]
Friends
Angie Torrents
Friendly Site

Pirateiro
Friendly site

Free Courses Online
Friendly site

ETTV
Friendly site

KaranPC
Friendly site

P2PDL.com
Friendly site

OneHack
Friendly site

IGGGames
Friendly site

Torrent Details For "Aftermath xxx 1080p mp4"

Aftermath xxx 1080p mp4

To download this torrent, you need a BitTorrent client: Vuze or BTGuard
Download this torrent
Download using Magnet Link

Health:
Seeds: 60
Leechers: 27
Completed: 179 
Last Checked: 18-10-2020 05:04:51

Uploader Reputation points : 16
External: Torrent






Write a Review for the Uploader:   0   Say Thanks with one good review:
Share on Facebook


Details
Name:Aftermath xxx 1080p mp4
Description:

It does not have any watermark including logo
----------------Mediainfo----------------
Format : MPEG-4
Format profile : Base Media
Codec ID : isom (isom/iso2/avc1/mp41)
File size : 4.23 GiB
Duration : 3 h 14 min
Overall bit rate mode : Variable
Overall bit rate : 3 122 kb/s

Video
ID : 1
Format : AVC
Format/Info : Advanced Video Codec
Format profile : [email protected]
Format settings : CABAC / 4 Ref Frames
Format settings, CABAC  : Yes
Format settings, ReFrames : 4 frames
Format settings, GOP : M=3, N=30
Codec ID : avc1
Codec ID/Info : Advanced Video Coding
Duration : 3 h 14 min
Bit rate : 3 000 kb/s
Width : 1 920 pixels
Height : 1 080 pixels
Display aspect ratio : 16:9
Frame rate mode : Constant
Frame rate : 30.000 FPS
Color space : YUV
Chroma subsampling : 4:2:0
Bit depth : 8 bits
Scan type : Progressive
Bits/(Pixel*Frame) : 0.048
Stream size : 4.05 GiB (96%)
Writing library : x264 core 142 r2
Language : English
Codec configuration box : avcC

Audio
ID : 2
Format : AAC LC
Format/Info : Advanced Audio Codec Low Complexity
Codec ID : mp4a-40-2
Duration : 3 h 14 min
Bit rate mode : Variable
Bit rate : 128 kb/s
Maximum bit rate : 211 kb/s
Channel(s) : 2 channels
Channel layout : L R
Sampling rate : 44.1 kHz
Frame rate : 43.066 FPS (1024 SPF)
Compression mode : Lossy
Stream size : 177 MiB (4%)
Language : English
Default : Yes
Alternate group : 1

xxx scenes:
https://www.assdrty.com/images/2020/10/17/7f28cba25cbbb9637.jpg
https://www.assdrty.com/images/2020/10/17/64c6963062c1edd8d.jpg
https://www.assdrty.com/images/2020/10/17/5fa3351e9006d7159.jpg
https://www.assdrty.com/images/2020/10/17/4d32a01115af7f89e.jpg
https://www.assdrty.com/images/2020/10/17/316abce31ac484ede.jpg
https://www.assdrty.com/images/2020/10/17/2db7f77c3f6ae2f5f.jpg
https://www.assdrty.com/images/2020/10/17/127bba4289bc50532.jpg

YouTube Video:
Category:Adult XXX
Language:English  English
Total Size:4.23 GB
Info Hash:8474A5EC57D220720AB62D454D0515C11EB71D96
Added By:jerryortom
Date Added:2020-10-17 22:07:56
Torrent Status:Torrent Verified by Prom3th3uS Super Administrator on 18th October, 2020


Ratings:Not Yet Rated (Log in to rate it)


Tracker:
udp://tracker.tiny-vps.com:6969/announce

This Torrent also has backup trackers
URLSeedersLeechersCompleted
udp://tracker.tiny-vps.com:6969/announce6326
http://sukebei.tracker.wf:8888/announce000
udp://9.rarbg.to:2710/announce3322
udp://tracker.cyberia.is:6969/announce4212
udp://zephir.monocul.us:6969/announce6112
http://tracker1.itzmx.com:8080/announce11413
udp://retracker.lanta-net.ru:2710/announce6215
udp://tracker.leechers-paradise.org:6969/announce2216
udp://tracker.opentrackr.org:1337/announce6224
udp://open.stealth.si:80/announce6319
udp://exodus.desync.com:6969/announce4211
udp://tracker.coppersurfer.tk:6969/announce639


File List: 





Comments
No comments still posted