Download 18+ Wasp Network 2020 720p NF WEBRip X264 DD 5 1 With Sample LLG torrent - GloDLS
Login
Username:
Password:
Remember Me:
[Signup]
[Recover Account]
Friends
Angie Torrents
Friendly Site

The Music Torrents Database
Friendly site

Watch Movies and TV Online
Friendly site

Pirateiro
Friendly site

Free Courses Online
Friendly site

ETTV
Friendly site

KaranPC
Friendly site

P2PDL.com
Friendly site

OneHack
Friendly site

Torrent Details For "18+ Wasp Network 2020 720p NF WEBRip X264 DD 5 1 With Sample LLG"

18+ Wasp Network 2020 720p NF WEBRip X264 DD 5 1 With Sample LLG

To download this torrent, you need a BitTorrent client: Vuze or BTGuard
Download this torrent
Download using Magnet Link

Health:
Seeds: 0
Leechers: 0
Completed:
Last Checked: 15-09-2020 16:22:14

Uploader Reputation points : 6160
External: Torrent






Write a Review for the Uploader:   0   Say Thanks with one good review:
Share on Facebook


Details
Name:18+ Wasp Network 2020 720p NF WEBRip X264 DD 5 1 With Sample LLG
Description:

Quote:



******************************Thumbnbil:**********************




******************************Screenshots:********************

screenshot 1

screenshot 2

screenshot 3

screenshot 4

screenshot 5

screenshot 6

screenshot 7

screenshot 8

screenshot 9

screenshot 0


******************************************************

18+.Wasp.Network.2020.720p.NF.WEBRip.X264.DD.5.1.With.Sample.LLG.mp4
Format                                   : MPEG-4
Format profile                           : Base Media
Codec ID                                 : isom (isom/iso2/avc1/mp41)
File size                                : 1.42 GiB
Duration                                 : 2 h 8 min
Overall bit rate mode                    : Variable
Overall bit rate                         : 1 590 kb/s
Writing application                      : Lavf57.83.100

Video
ID                                       : 1
Format                                   : AVC
Format/Info                              : Advanced Video Codec
Format profile                           : [email protected]
Format settings                          : CABAC / 1 Ref Frames
Format settings, CABAC                   : Yes
Format settings, Reference frames        : 1 frame
Codec ID                                 : avc1
Codec ID/Info                            : Advanced Video Coding
Duration                                 : 2 h 8 min
Bit rate mode                            : Variable
Bit rate                                 : 1 202 kb/s
Maximum bit rate                         : 3 600 kb/s
Width                                    : 1 280 pixels
Height                                   : 532 pixels
Display aspect ratio                     : 2.40:1
Original display aspect ratio            : 2.40:1
Frame rate mode                          : Constant
Frame rate                               : 24.000 FPS
Color space                              : YUV
Chroma subsampling                       : 4:2:0
Bit depth                                : 8 bits
Scan type                                : Progressive
Bits/(Pixel*Frame)                       : 0.074
Stream size                              : 1.07 GiB (76%)
Codec configuration box                  : avcC

Audio
ID                                       : 2
Format                                   : AC-3
Format/Info                              : Audio Coding 3
Commercial name                          : Dolby Digital
Codec ID                                 : ac-3
Duration                                 : 2 h 8 min
Bit rate mode                            : Constant
Bit rate                                 : 384 kb/s
Channel(s)                               : 6 channels
Channel layout                           : L R C LFE Ls Rs
Sampling rate                            : 48.0 kHz
Frame rate                               : 31.250 FPS (1536 SPF)
Compression mode                         : Lossy
Stream size                              : 352 MiB (24%)
Language                                 : English
Service kind                             : Complete Main
Default                                  : Yes
Alternate group                          : 1




********************************************************


YouTube Video:
Category:Movies
Language:English  English
Total Size:1.44 GB
Info Hash:81AAE750365E97BBADFF424EDCA6F7FF98C852D9
Added By:LifeLongg Verified Uploader
Date Added:2020-09-15 23:22:13
Torrent Status:Torrent Verified


Ratings:Not Yet Rated (Log in to rate it)


Tracker:
udp://tracker.openbittorrent.com:80/announce

This Torrent also has backup trackers
URLSeedersLeechersCompleted
udp://tracker.openbittorrent.com:80/announce000
udp://tracker.opentrackr.org:1337/announce000
UDP://TRACKER.LEECHERS-PARADISE.ORG:6969/ANNOUNCE000
UDP://TRACKER.COPPERSURFER.TK:6969/ANNOUNCE000
UDP://TRACKER.OPENTRACKR.ORG:1337/ANNOUNCE000
UDP://TRACKER.ZER0DAY.TO:1337/ANNOUNCE000
UDP://EDDIE4.NL:6969/ANNOUNCE000


File List: 





Comments
No comments still posted